Dark Star Radio: March 15th Set




PERFORMER "Kieran Somerville"

TITLE "Sets To Sleep In With"

FILE "2021-03-15_11h41m20s.mp3" MP3

TRACK 01 AUDIO

TITLE "Metaru No Fantajii (??? ? ?????? )"

PERFORMER "Kieran Somerville"

INDEX 01 00:05:32

TRACK 02 AUDIO

TITLE "DarkStarRadioCOmmercialArashiLow"

PERFORMER ""

INDEX 01 02:59:68

TRACK 03 AUDIO

TITLE "Hovering Stars (Final Mix)"

PERFORMER "Kieran Somerville"

INDEX 01 03:20:32

TRACK 04 AUDIO

TITLE "I've been thinking about you"

PERFORMER "Kieran Somerville"

INDEX 01 06:14:26

TRACK 05 AUDIO

TITLE "transpandjdrop"

PERFORMER "Dark Star RADIO DROPS"

INDEX 01 09:39:46

TRACK 06 AUDIO

TITLE "Strip that down Liam Payne"

PERFORMER ""

INDEX 01 09:49:65

TRACK 07 AUDIO

TITLE "Freaky [NCS Release]"

PERFORMER "Hush"

INDEX 01 12:22:11

TRACK 08 AUDIO

TITLE "Out Of Kilter"

PERFORMER "Kieran Somerville"

INDEX 01 15:16:05

TRACK 09 AUDIO

TITLE "Money [NCS Release]"

PERFORMER "Clarx"

INDEX 01 18:51:45

TRACK 10 AUDIO

TITLE "05"

PERFORMER "Track 360"

INDEX 01 21:25:41

TRACK 11 AUDIO

TITLE "Don't Want To Wake Up (To The Party)"

PERFORMER "Kieran Somerville"

INDEX 01 24:50:61

TRACK 12 AUDIO

TITLE "Speaking A Dead Language (Resonata Flip)"

PERFORMER "Joy Williams"

INDEX 01 28:26:25

TRACK 13 AUDIO

TITLE "Dunedin Cafe"

PERFORMER "Kieran Somerville"

INDEX 01 31:20:19

TRACK 14 AUDIO

TITLE "SAVIOR"

PERFORMER "Leone"

INDEX 01 34:24:74

TRACK 15 AUDIO

TITLE "Spirits Say [NCS Release]"

PERFORMER "Heuse & Caravn"

INDEX 01 38:31:23

TRACK 16 AUDIO

TITLE "Reggaeton Lento (Dj Nev Edit)"

PERFORMER "CNCO"

INDEX 01 41:15:39

TRACK 17 AUDIO

TITLE "Breakdown [NCS Release]"

PERFORMER "Xaia & Rain Man & Oly"

INDEX 01 44:27:55

TRACK 18 AUDIO

TITLE "Howling (ft. Asena)(Charlie Lane Remix) [NCS Release]"

PERFORMER "Cartoon"

INDEX 01 48:34:04

TRACK 19 AUDIO

TITLE "Auracite Dreams"

PERFORMER "Kieran Somerville"

INDEX 01 51:38:59

TRACK 20 AUDIO

TITLE "Shining [NCS Release]"

PERFORMER "Jonas Wang"

INDEX 01 55:45:08

TRACK 21 AUDIO

TITLE "Limbo"

PERFORMER "Ivoryghost"

INDEX 01 58:19:04

TRACK 22 AUDIO

TITLE "DJ KIERAN TTTS DROP"

PERFORMER "TTS DARK STAR"

INDEX 01 62:56:12

TRACK 23 AUDIO

TITLE "TIMESINK (Resonata Flip)"

PERFORMER "LORN"

INDEX 01 63:16:52

TRACK 24 AUDIO

TITLE "- Cyber-flunk 2020"

PERFORMER "Kieran Somerville"

INDEX 01 66:31:52

TRACK 25 AUDIO

TITLE "Higher (feat. Vanessa Campagna) [NCS Release]"

PERFORMER "Hoober"

INDEX 01 70:35:17

TRACK 26 AUDIO

TITLE "requestininboxavatadream"

PERFORMER ""

INDEX 01 73:18:66

TRACK 27 AUDIO

TITLE "The Silver Fox"

PERFORMER "Kieran Somerville"

INDEX 01 73:29:10

TRACK 28 AUDIO

TITLE "Lo Vas A Olvidar (Resonata Flip)"

PERFORMER "Billie Eilish x ROSALÕA"

INDEX 01 77:03:00

TRACK 29 AUDIO

TITLE "Hovering Stars"

PERFORMER "Kieran Somerville"

INDEX 01 80:59:04

TRACK 30 AUDIO

TITLE "Here With The Wolves"

PERFORMER ""

INDEX 01 83:53:39

TRACK 31 AUDIO

TITLE "Hypocrisy"

PERFORMER "Leone"

INDEX 01 87:39:23

TRACK 32 AUDIO

TITLE "DarkStarad2"

PERFORMER ""

INDEX 01 90:33:59

TRACK 33 AUDIO

TITLE "Never Give Up [NCS Release]"

PERFORMER "Steve Hartz"